[视频信息]
视频编码: AVC1 – 内置 FFmpeg 解码器(h264, Thread Frame)
输入格式: AVC1(24 bits)
输入尺寸: 1920 × 1080(1.78:1)
输出格式: NV12(12 bits)
输出尺寸: 1920 × 1080(1.78:1)
帧率: 23.976
BitRate: 未知

[音频信息]
音频编码: ExtPCM(0xfffe) – PCM
采样率: 48000 -> 48000 Hz
位率: 24 -> 16 位
声道数: 2 -> 2 声道
Bitrate: 2304 kbps

General
Unique ID : 54390242992769070620486715147135501999 (0x28EB2E0528D2BDB40B54CFED62C046AF)
Complete name : H:\Roselia 6th Live Flamme-Wasser Redux 2019\Roselia 6th Live Day 1 Flamme.mkv
Format : Matroska
Format version : Version 2
File size : 31.8 GiB
Duration : 2 h 27 min
Overall bit rate mode : Variable
Overall bit rate : 30.9 Mb/s
Movie name : Roselia「Wahl」Disc1【Blu-ray付生产限定盘】
Encoded date : UTC 2020-07-15 12:35:38
Writing application : MakeMKV v1.15.1 win(x64-release)
Writing library : libmakemkv v1.15.1 (1.3.5/1.4.7) win(x64-release)
Cover : Yes
Attachments : cover.jpg

Video
ID : 1
ID in the original source medi : 4113 (0x1011)
Format : AVC
Format/Info : Advanced Video Codec
Format profile : High@L4.1
Format settings : CABAC / 4 Ref Frames
Format settings, CABAC : Yes
Format settings, Reference fra : 4 frames
Codec ID : V_MPEG4/ISO/AVC
Duration : 2 h 27 min
Bit rate mode : Variable
Bit rate : 29.0 Mb/s
Maximum bit rate : 30.0 Mb/s
Width : 1 920 pixels
Height : 1 080 pixels
Display aspect ratio : 16:9
Frame rate mode : Constant
Frame rate : 23.976 (24000/1001) FPS
Standard : Component
Color space : YUV
Chroma subsampling : 4:2:0
Bit depth : 8 bits
Scan type : Progressive
Bits/(Pixel*Frame) : 0.583
Stream size : 29.4 GiB (93%)
Writing library : x264 core 155
Encoding settings : cabac=1 / ref=4 / deblock=1:0:0 / analyse=0x3:0x113 / me=hex / subme=7 / psy=1 / psy_rd=1.00:0.00 / mixed_ref=1 / me_range=16 / chroma_me=1 / trellis=1 / 8x8dct=1 / cqm=1 / deadzone=21,11 / fast_pskip=1 / chroma_qp_offset=-2 / threads=12 / lookahead_threads=2 / sliced_threads=0 / slices=4 / nr=0 / decimate=1 / interlaced=0 / minigop=1 / stitchable=1 / constrained_intra=0 / bframes=3 / b_pyramid=0 / b_adapt=1 / b_bias=0 / direct=1 / weightb=1 / open_gop=1 / weightp=1 / keyint=24 / keyint_min=1 / scenecut=40 / intra_refresh=0 / rc_lookahead=24 / rc=2pass / mbtree=1 / bitrate=29000 / ratetol=1.0 / qcomp=0.60 / qpmin=3 / qpmax=69 / qpstep=4 / cplxblur=20.0 / qblur=0.5 / vbv_maxrate=30000 / vbv_bufsize=30000 / nal_hrd=vbr / filler=0 / ip_ratio=1.40 / aq=1:1.00
Language : English
Default : No
Forced : No
Color range : Limited
Color primaries : BT.709
Transfer characteristics : BT.709
Matrix coefficients : BT.709
Original source medium : Blu-ray

Audio
ID : 2
ID in the original source medi : 4352 (0x1100)
Format : PCM
Format settings : Little / Signed
Codec ID : A_PCM/INT/LIT
Duration : 2 h 27 min
Bit rate mode : Constant
Bit rate : 2 304 kb/s
Channel(s) : 2 channels
Sampling rate : 48.0 kHz
Frame rate : 30.000 FPS (1600 SPF)
Bit depth : 24 bits
Stream size : 2.37 GiB (7%)
Title : Stereo
Language : Japanese
Default : Yes
Forced : No
Original source medium : Blu-ray

Menu
00:00:00.000 : ja:Chapter 01
00:03:09.189 : ja:Chapter 02
00:07:09.303 : ja:Chapter 03
00:11:55.047 : ja:Chapter 04
00:15:21.754 : ja:Chapter 05
00:19:28.750 : ja:Chapter 06
00:22:25.385 : ja:Chapter 07
00:26:08.567 : ja:Chapter 08
00:30:48.847 : ja:Chapter 09
00:36:02.243 : ja:Chapter 10
00:40:20.793 : ja:Chapter 11
00:43:18.304 : ja:Chapter 12
00:48:19.897 : ja:Chapter 13
01:06:02.291 : ja:Chapter 14
01:11:37.501 : ja:Chapter 15
01:15:52.381 : ja:Chapter 16
01:20:22.609 : ja:Chapter 17
01:25:34.504 : ja:Chapter 18
01:27:17.232 : ja:Chapter 19
01:32:52.858 : ja:Chapter 20
01:38:18.017 : ja:Chapter 21
01:55:36.638 : ja:Chapter 22
01:59:51.559 : ja:Chapter 23
02:16:13.874 : ja:Chapter 24
02:21:58.343 : ja:Chapter 25
02:27:12.740 : ja:Chapter 26

发表回复

您的电子邮箱地址不会被公开。 必填项已用*标注